#TITLE:Face of Fact -RESOLUTION ver-;
#SUBTITLE:- BALDR FORCE EXE RESOLUTION Opening;
#ARTIST:KOTOKO;
#TITLETRANSLIT:;
#SUBTITLETRANSLIT:;
#ARTISTTRANSLIT:;
#CREDIT:LK4D4;
#BANNER:BALDR banner vid.avi;
#BACKGROUND:BALDR bg1.jpg;
#LYRICSPATH:BALDR FORCE EXE Resolution - O.lrc;
#CDTITLE:lkred1.png;
#MUSIC:BALDR Audio.mp3;
#OFFSET:0.140;
#SAMPLESTART:44.130;
#SAMPLELENGTH:12.000;
#SELECTABLE:YES;
#BPMS:0.000=135.100,132.000=67.540,134.000=135.100;
#STOPS:;
#BGCHANGES:0.050=BALDR Video.avi=1.000=1=0=0,
244.000=BALDR bg2.jpg=1.000=1=0=1,
99999=-nosongbg-=1.000=0=0=0 // don't automatically add -songbackground-
;
// cache tags:
#FIRSTBEAT:2.000;
#LASTBEAT:244.250;
#SONGFILENAME:songs/Otaku's Dream 3rd Anime Mix/[LK4D4] Face of Fact-RESOLUTION - BALDR FORCE EXE Resolution OP/BALDR FORCE EXE Resolution - O.sm;
#HASMUSIC:1;
#HASBANNER:1;
#MUSICLENGTH:110.832;
// end cache tags

//---------------dance-single - Blank----------------
#NOTES:
     dance-single:
     Blank:
     Challenge:
     9:
     0.860,1.000,0.568,1.000,0.677,454.000,63.000,150.000,31.000,0.000:

0000
0000
0000
0000
0100
0010
1000
0001
,
0200
0000
0000
0000
0000
1300
0100
0002
,
0000
0000
0000
0000
0000
0013
0100
1000
,
0200
0000
0000
0000
,
0310
0000
0000
0000
0010
0001
1000
0010
,
0200
0010
0000
0001
0010
0000
0001
0010
0300
0000
0010
0000
1000
0000
0200
0000
,
1000
0010
0000
1000
0010
0000
1000
0010
0300
0000
0010
0000
0001
0000
0100
0000
,
1000
0100
0001
0100
1000
0100
0001
0010
1000
0010
0001
0010
1000
0010
0001
0010
,
0100
0100
0100
0000
0011
0010
0110
0100
,
1100
0001
0010
0100
0010
0000
0100
1000
0001
0100
0010
0001
0010
0000
1000
0100
,
1000
0001
1000
0010
0001
0000
0010
0100
0010
1000
0100
0010
0001
0000
0001
0010
,
0001
0010
0001
0100
1000
0000
0100
0001
0010
0001
0100
1000
0100
0000
0001
0000
,
2000
0000
0000
3000
1010
0010
0110
0100
,
0101
0001
0010
0100
0010
0000
0001
0010
1000
0010
0001
0010
0100
0000
1000
0010
,
1000
0100
1000
0010
0001
0000
0010
0100
0001
0100
1000
0100
1000
0000
1000
0000
,
0100
0001
0100
1000
0100
0001
0100
1000
0100
0001
0010
0001
0010
0000
0000
0000
,
0100
1000
0000
0001
0010
0000
0001
0100
0000
0010
1000
0000
0010
0000
0000
0000
,
2020
0000
0000
3030
0202
0000
0303
0000
0100
0010
0000
2000
0000
3000
0100
0000
,
2200
0000
0000
3300
0022
0000
0033
0000
1000
0100
0000
0010
0000
0000
1000
0000
,
1100
0010
0010
0101
0202
0000
0303
0000
,
0011
0000
1010
0000
1100
0000
0101
0000
0110
0000
0100
1000
0100
0000
0001
0000
,
0022
0000
0000
0033
2200
0000
3300
0000
0010
0001
0000
0200
0000
0300
0011
0000
,
2020
0000
0000
3030
2002
0000
3003
0000
0100
0010
0000
2000
0000
3000
0100
0000
,
0022
0000
0000
0033
2200
0000
3300
0000
2020
3030
0220
0330
0022
0033
2020
3030
,
0000
0000
1000
0000
0001
0000
0100
0001
0010
0000
0100
0010
0100
0010
0001
0000
,
1000
0000
1000
0000
0010
0100
0000
2002
3000
0003
0010
0001
0010
0000
0001
0000
,
0001
0000
0001
0000
0100
0010
0000
2002
0003
3000
0010
1000
0010
0000
0000
0000
,
0022
0000
0033
0202
0000
0303
2020
3030
2200
0000
3300
0022
0000
0033
0220
0330
,
0202
0000
0303
2020
0000
3030
2200
3300
0120
0030
0001
0100
0001
0010
0001
0000
,
0100
0000
1000
0000
0010
0100
0000
2020
0030
3000
0001
0100
0001
0000
1000
0000
,
0010
0000
0100
0000
0001
1000
0000
0022
0030
0003
1000
0100
1000
0000
0000
0000
,
0220
0000
0330
2020
0000
3030
0202
0303
0022
0000
0033
2200
0000
3300
0220
0330
,
1020
0000
000M
0000
M001
0000
1000
0M00
0001
0000
1000
000M
0100
M000
0030
0000
,
0100
1000
00M0
0100
M001
0000
0010
0100
000M
1000
0001
0000
M1M0
0000
0000
0000
1000
0000
0000
0000
0100
0000
0000
0000
0001
0000
0000
0000
0010
0000
0000
0000
,
2000
0000
3000
0022
0030
0003
0100
0010
2000
0000
3000
0200
0000
0300
0001
0000
,
0202
0003
0310
0100
0010
0100
1000
0000
0002
0000
0003
0200
0000
0300
0010
0000
,
2000
3000
0002
0003
0100
0000
0010
0000
0002
0000
0003
0020
0000
0030
2000
3000
,
0202
0003
0310
1000
0010
1000
0001
0000
0010
1000
0010
0001
0010
0000
0001
0100
,
0000
0010
1000
0000
2200
0000
3300
0000
0100
0001
0100
1000
0100
0000
1000
0001
,
0000
0010
0100
0000
0202
0000
0303
0000
2020
0000
0030
3000
0010
0000
0100
0000
,
2000
0000
3000
0200
0000
0300
0010
0000
2000
0000
3000
0002
0000
0003
0100
0000
,
0220
0330
1000
0010
1000
0010
0100
0000
0001
0000
0010
0000
0001
0000
0100
0000
,
0002
0000
0003
2000
0000
3000
0010
0100
0002
0000
0003
0020
0000
0030
0100
0000
,
0201
0300
0010
1000
0010
1000
0010
0000
0200
0000
0300
0002
0000
0003
0010
0000
,
0100
0000
1000
0000
0010
0000
0100
0000
2000
0000
3000
0200
0000
0300
0001
0000
,
2001
3000
0010
0100
0010
0100
0010
0000
1000
0010
1000
0100
0010
0000
0001
0100
,
0000
0010
1000
0000
0002
0000
0003
0000
0010
0001
0100
0001
0010
0000
0100
1000
,
0000
0010
0100
0000
0002
0000
0003
0000
0020
0000
0000
0030
0100
0000
1000
0000
,
0200
0000
0300
0020
0000
0030
0001
0000
0200
0000
0300
2000
0000
0000
3200
0000
,
0302
0000
0003
0000
2000
0000
3000
0000
0220
0000
0030
00M0
2000
0000
3000
M000
,
0002
0000
0000
0000
0000
0000
0000
0000
0000
0000
0000
0000
0003
0000
000M
0300
0220
0000
0000
0000
0000
0000
0000
0000
0000
0000
0000
0000
0300
0000
0M00
0000
,
2000
0000
0000
0000
3000
0000
M000
0000
0002
0000
0000
0000
0003
0000
000M
0030
2020
0000
0000
0000
0000
0000
0000
0000
0000
0000
0000
0000
0030
0000
00M0
0000
,
0002
0000
0000
0000
0003
0000
000M
0000
0200
0000
0000
0000
0300
0000
0M00
3000
2002
0000
0000
0000
0000
0000
0000
0000
0000
0000
0000
0000
3000
0000
M000
0000
,
0200
0000
0303
0000
0200
1000
0310
0000
,
0020
0001
1030
0000
2000
0010
3001
0000
,
0002
0100
0013
0000
2000
0000
3002
0000
,
0203
0000
0000
0000
0320
0000
0000
0000
0030
0000
1000
0000
0001
0100
0000
0001
,
0000
0010
0000
0100
1000
0000
0010
0100
0010
0000
0000
0000
0000
0000
0000
0000
,
0000
0000
0100
0M01
100M
M010
01M0
0M01
,
1000
0000
0000
0000
,
0000
0000
0000
0000
0000
0000
0000
0000
0000
0000
0M00
0000
M000
000M
M000
0M10
,
00M0
0000
0000
0000
;

//---------------dance-single - Blank----------------
#NOTES:
     dance-single:
     Blank:
     Hard:
     8:
     0.700,0.991,0.568,1.000,0.392,343.000,63.000,137.000,13.000,0.000:

0000
0000
0000
0000
0100
0010
1000
0001
,
0200
0000
0000
0000
0000
1300
0100
0002
,
0000
0000
0000
0000
0000
0013
0100
1000
,
0200
0000
0000
0000
,
0310
0000
0000
0000
0010
0001
1000
0010
,
0200
0010
0000
0010
0010
0000
0010
0010
0300
0000
0010
0000
1000
0000
0200
0000
,
0010
0010
0000
0010
0010
0000
0010
0010
0300
0000
0010
0000
0001
0000
0100
0000
,
2000
0100
0000
0100
0100
0000
0100
0100
0000
0100
0100
0000
0100
0000
0100
0000
,
3100
0000
0000
0000
0100
0001
0010
0100
,
1000
0000
0000
1000
0010
0000
0000
0001
0010
0000
1000
0000
0010
0000
0100
0000
,
0001
0000
0000
0001
0010
0000
0000
1000
0010
0000
0100
0000
1000
0000
0010
0000
,
0100
0000
0000
0100
0001
0000
0000
0010
0100
0000
1000
0000
0100
0000
0010
0000
,
0002
0000
0000
0003
0100
1000
0100
0001
,
0100
0000
0000
0010
1000
0000
0000
0100
0010
0000
0001
0000
1000
0000
0100
0000
,
0010
0000
0000
0001
0100
0000
0000
1000
0100
0000
0010
0000
1000
0000
0100
0000
,
0001
0100
1000
0100
0001
0000
0200
0000
,
0010
0010
0000
0001
0001
0000
1000
1000
0000
0010
0010
0000
1300
0000
0000
0000
,
0022
0000
0000
0033
0202
0000
0000
0303
0100
0010
0000
1000
0000
0000
0001
0000
,
2020
0000
0000
3030
2200
0000
0000
3300
0100
0010
0000
0001
0000
0000
1000
0000
,
0220
0000
0330
1001
0220
0000
0330
0000
,
1000
0000
0010
0000
0100
0000
0001
0000
1000
0000
0010
0100
0001
0000
1000
0000
,
0022
0000
0000
0033
2020
0000
0000
3030
0100
0001
0000
0010
0000
0000
0100
0000
,
0202
0000
0000
0303
2200
0000
0000
3300
0010
0001
0000
0100
0000
0000
0010
0000
,
2200
0000
0000
3300
0202
0000
0000
0303
0220
0330
2020
3030
2200
3300
0220
0330
,
0000
0001
0010
0100
0020
0000
0030
0000
,
0001
0000
0100
0000
1000
0100
0000
0002
0000
0000
0000
0003
0000
0000
0001
0000
,
1000
0000
0100
0000
0001
0100
0000
2000
0000
0000
0000
0000
3000
0000
0000
0000
,
0022
0000
0033
2200
0000
3300
0202
0303
0220
0000
0330
2020
0000
3030
2200
3300
,
0202
0000
0303
2020
0000
3030
0220
0330
2002
0000
0000
0000
0000
0000
3003
0000
,
1000
0000
0100
0000
1000
0010
0000
0200
0000
0000
0000
0300
0000
0000
0001
0000
,
0010
0000
0001
0000
0100
0010
0000
0020
0000
0000
0000
0000
0030
0000
0000
0000
,
2020
0000
3030
0202
0000
0303
0022
0033
2200
0000
3300
2020
0000
3030
0220
0330
,
2002
0000
0000
0000
0M00
0000
0000
00M0
0000
0000
0000
0M00
0000
0000
30M3
0000
,
1M00
0010
0000
0100
00M1
M000
0010
0100
000M
1000
0010
0000
0100
0000
M000
0000
0001
0000
0000
0000
0100
0000
0000
0000
0010
0000
0000
0000
1000
0000
0000
0000
,
0200
0000
0300
0020
0000
0030
0010
0100
1000
0000
0000
0001
0000
0000
0010
0000
,
0202
0000
0000
0000
0303
0000
0000
0000
0020
0000
0030
2000
0000
3000
0010
0000
,
0100
0000
0001
0000
1000
0000
0010
0000
2200
0000
3300
2020
0000
3030
0220
0330
,
0202
0000
0000
0000
0303
0000
0000
0000
0010
0001
1000
0100
1000
0000
0001
0010
,
0000
0100
1000
0000
0101
0000
0000
0000
1000
0010
1000
0100
1000
0000
0010
0100
,
0000
0001
0010
0000
1100
0000
0000
0000
2002
0000
3003
0000
1010
0000
0110
0000
,
0101
0000
0000
0011
0000
0000
1100
0000
1010
0000
0000
0110
0000
0000
1001
0000
,
0220
0000
0330
0000
0001
0010
0100
0001
,
0100
0000
0000
1000
0000
0000
0010
0100
0001
0000
0000
0010
0000
0000
0100
0000
,
2000
0000
0000
0000
3000
0000
0000
0000
0001
0000
0000
1000
0000
0000
0010
0000
,
0100
0000
1000
0000
0100
0000
0010
0000
1000
0000
0000
0001
0000
0000
0100
0000
,
0020
0000
0000
0000
0030
0000
0000
0000
1000
0010
0001
0010
1000
0000
0100
0010
,
0000
0001
0100
0000
1010
0000
0000
0000
0100
0001
0100
1000
0100
0000
0001
0010
,
0000
0100
1000
0000
0011
0000
0000
0000
2002
0000
3003
0000
0202
0303
2020
3030
,
2200
0000
3300
0220
0000
0330
0010
0000
0001
0000
0000
1000
0000
0000
0100
0000
,
0010
0000
0100
0000
2020
3000
0002
0003
,
2000
0000
0000
3000
0200
0000
0000
0300
,
2000
3000
0002
0003
0200
0000
0000
0300
,
0002
0003
2000
3000
0200
0000
0000
0300
,
2000
0000
3030
0000
0202
0000
0000
0303
,
0022
0000
0000
0033
2200
0000
0000
3300
,
2020
0000
0000
3030
0200
0000
0302
0000
,
2003
3200
0302
0023
,
2030
3200
0310
0000
,
0000
0000
1000
0010
0001
0010
1000
0100
,
0001
0000
0000
0000
,
0000
0000
0000
0000
0000
0000
0000
0000
0000
0000
0000
0000
M000
0000
000M
0M10
,
00M0
0000
0000
0000
;

//---------------dance-single - Blank----------------
#NOTES:
     dance-single:
     Blank:
     Medium:
     7:
     0.612,0.882,0.262,0.965,0.271,339.000,29.000,107.000,5.000,0.000:








0000
0000
0000
0000
0100
0010
1000
0001
,
0200
0000
0000
0000
0000
1300
0100
0002
,
0000
0000
0000
0000
0000
0013
0100
1000
,
0200
0000
0000
0000
,
0310
0000
0000
0000
0010
0001
1000
0010
,
0200
0010
0010
0010
0310
1000
0100
0020
,
0100
0100
0100
0100
0130
1000
0001
0100
,
2000
0100
0100
0100
0100
0100
0100
0100
,
3100
0000
0000
0000
0100
0001
0010
0100
,
2000
0100
0100
0100
3100
0010
0001
0100
,
0020
0100
0100
0100
0130
0001
1000
0001
,
0020
0001
0001
0001
0001
0001
0001
0001
,
0031
0000
0000
0000
0001
0010
0100
1000
,
0020
0100
0100
0100
0130
0001
0010
0100
,
2000
0100
0100
0100
3100
1000
0010
0100
,
0002
0000
1000
0000
1000
0000
1000
0000
1000
0000
0000
0000
2003
0000
0000
3000
,
0220
0000
0000
0330
,
2000
0000
0000
3000
0002
0000
0000
0003
0100
0010
0000
1000
0000
0000
0100
0000
,
0001
0000
0000
0000
0100
0000
0000
0000
1000
0010
0000
0100
0000
0000
0001
0000
,
1000
0000
0000
0001
1000
0000
0000
0000
,
0110
0000
0100
0000
0010
0000
1000
0000
0001
0000
0100
1000
0100
0000
0001
0000
,
0002
0000
0000
0003
2000
0000
0000
3000
0100
0010
0000
0001
0000
0000
0100
0000
,
2000
0000
0000
3000
0200
0000
0000
0300
0001
0010
0000
0100
0000
0000
1000
0000
,
2200
0000
0000
3300
0022
0000
0000
0033
0202
0303
0220
0330
2020
3030
2002
0000
,
3003
0001
1000
0100
0020
0000
0030
0000
,
0001
0000
0010
0000
0100
1000
0000
0002
0000
0000
0000
0003
0000
0000
1000
0000
,
0010
0000
0100
0000
0001
0010
0000
0200
0000
0000
0000
0300
0000
0000
0000
0000
,
0022
0000
0033
2002
0000
3003
2020
3030
0220
0000
0330
0202
0000
0303
2002
3003
,
2200
0000
3300
0220
0000
0330
0022
0033
2002
0000
0000
0000
0000
0000
3003
0000
,
0001
0000
0100
0000
0001
0010
0000
0200
0000
0000
0000
0300
0000
0000
1000
0000
,
0010
0000
1000
0000
0100
0010
0000
0200
0000
0000
0000
0300
0000
0000
0000
0000
,
0020
0000
0030
2000
0000
3000
0020
0030
0200
0000
0300
2000
0000
3000
0022
0033
,
2002
0000
0000
0000
0000
0000
0000
3003
,
0100
0010
0000
0010
0100
0000
0100
0010
0000
0010
0100
0000
0010
0000
0000
0000
1000
0000
0000
0000
0001
0000
0000
0000
0100
0000
0000
0000
0010
0000
0000
0000
,
1000
0000
0000
0110
0000
0000
0100
0001
0010
0000
0000
0100
0000
0000
1000
0000
,
0002
0000
0000
0000
0003
0000
0000
0000
0100
0000
0000
1000
0000
0000
0100
0000
,
0010
0000
1000
0000
0100
0000
0010
0000
0022
0000
0033
2200
0000
3300
2020
3030
,
0220
0000
0000
0000
0330
0000
0000
0000
1000
0010
1000
0010
1000
0000
0010
0100
,
0000
0100
0001
0000
1000
0000
0000
0000
0001
0010
0001
0010
0001
0000
0010
0100
,
0000
0100
1000
0000
0001
0000
0000
0000
0202
0000
0303
0000
0100
0000
0010
0000
,
1000
0000
0000
0001
0000
0000
0010
0000
0100
0000
0000
1000
0000
0000
0220
0330
,
2002
0000
3003
0000
1000
0010
0001
0010
,
1000
0000
0000
0100
0000
0000
1000
0100
0010
0000
0000
0100
0000
0000
1000
0000
,
0002
0000
0000
0000
0003
0000
0000
0000
0010
0000
0000
0100
0000
0000
1000
0000
,
0100
0000
0001
0000
0100
0000
1000
0000
0010
0000
0000
0100
0000
0000
0001
0000
,
0200
0000
0000
0000
0300
0000
0000
0000
0010
1000
0010
1000
0010
0000
1000
0001
,
0000
0001
0010
0000
0100
0000
0000
0000
0010
0001
0010
0001
0010
0000
0001
1000
,
0000
1000
0010
0000
0100
0000
0000
0000
0110
0000
0000
0000
0100
0000
0001
0000
,
1000
0000
0000
0010
0000
0000
1000
0000
0100
0000
0000
0010
0000
0000
0001
0000
,
1000
0000
0010
0000
0200
0000
0020
0030
,
0020
0000
0000
0030
2000
0000
0000
3000
,
2000
3000
0002
0003
0002
0000
0000
0003
,
0020
0030
0002
0003
2000
0000
0000
3000
,
0020
0000
0330
0000
2000
0100
0100
3000
,
0020
0001
0001
0030
0200
0010
0010
0300
,
2000
0001
0001
3000
2000
0000
3200
0000
,
0320
2030
3020
0032
,
0203
2300
3100
0000
,
0000
0000
0001
0010
0100
0001
0100
1000
,
0010
0000
0000
0000
,
0000
0000
0000
0000
0000
0000
0000
0000
000M
0000
M000
0000
000M
0000
0M00
0010
,
0000
00M0
0000
0000
0000
0000
0000
0000
0000
0000
0000
0000
0000
0000
0000
0000
;

//---------------dance-single - Blank----------------
#NOTES:
     dance-single:
     Blank:
     Easy:
     5:
     0.375,0.467,0.045,0.388,0.117,243.000,5.000,43.000,4.000,0.000:








0000
0000
0000
0000
,
0220
0000
0000
0000
0000
0330
0000
2002
,
0000
0000
0000
0000
0000
3003
0000
0000
,
2020
0000
0000
0000
0000
0000
0000
0030
,
3010
0000
0000
0000
1000
0001
0100
0010
,
2000
0000
0000
0000
3000
0100
0010
0002
,
0000
0000
0000
0000
0003
0010
0100
1000
,
0002
0000
0000
0000
,
0003
0000
0000
0000
0001
0010
0100
1000
,
0020
0000
0100
0000
0130
0100
0001
0010
,
0200
0000
0010
0000
0310
0010
0100
1000
,
0002
0100
0010
0100
,
0013
0000
0000
0000
0010
0001
1000
0100
,
0020
0000
0100
0000
0130
0100
1000
0001
,
0020
0000
0001
0000
0031
0001
0100
0010
,
2000
0000
0000
0000
0000
0000
0002
3003
,
0220
0000
0000
0330
,
2000
0000
3000
0000
0200
0000
0300
0000
0010
0000
0000
0100
0000
0000
0010
0000
,
0001
0000
0010
0000
0100
0000
1000
0100
,
1000
0000
0000
0010
0100
0000
0000
0000
,
0001
0100
0001
0010
0001
0100
0001
0010
,
0002
0000
0003
0000
0200
0000
0300
0000
0010
0000
0000
0100
0000
0000
0010
0000
,
1000
0000
0000
0000
0010
0000
0000
0000
0100
0000
0000
0001
0000
0000
0100
0000
,
0001
0000
1000
0000
0100
0010
0001
0100
,
0000
0010
0100
0001
1000
0000
0000
0000
,
0100
0000
1000
0000
0001
0000
0000
0010
0000
0000
0000
0000
0000
0000
0010
0000
,
0001
0000
1000
0000
0100
0000
0000
0100
0000
0000
0000
0000
0000
0000
0000
0000
,
0010
0000
0000
0001
0000
0000
0100
0000
1000
0000
0000
0100
0000
0000
0001
0000
,
0010
0000
0000
0100
0000
0000
1000
0000
0010
0000
0000
0000
0000
0000
0000
0000
,
0100
0000
0001
0000
1000
0000
0000
0010
0000
0000
0000
0000
0000
0000
0010
0000
,
1000
0000
0001
0000
0100
0000
0000
0100
0000
0000
0000
0000
0000
0000
0000
0000
,
0002
0000
0003
2000
0000
3000
0020
0030
0200
0000
0300
0002
0000
0003
0020
0030
,
0200
0000
0000
0000
0000
0000
0000
0300
,
0010
0000
0010
0000
0001
1000
0100
0000
1000
0000
0010
0000
0100
0000
0001
0000
,
1000
0000
0000
0010
0000
0000
0100
0000
0001
0000
0000
1000
0000
0000
0010
0000
,
0100
0000
0000
0000
0000
0000
0000
0000
0001
0000
0000
0010
0000
0000
0100
0000
,
1000
0000
0001
0000
0010
0000
0100
0000
1000
0000
0000
0001
0000
0000
0010
0000
,
0100
0000
1000
0001
,
1000
0010
1000
0000
0001
0000
1000
0000
,
0001
0010
0001
0000
1000
0000
0010
0100
,
0001
0000
0000
0010
0000
0000
0100
0000
1000
0000
0000
0100
0000
0000
0001
0000
,
0100
0000
0000
0000
0010
0100
0010
0001
,
1000
0000
0000
0100
0000
0000
1000
0000
0010
0000
0000
0100
0000
0000
0001
0000
,
0100
0000
0000
0000
0000
0000
0000
0000
1000
0000
0000
0100
0000
0000
0001
0000
,
0010
0000
0100
0000
1000
0000
0010
0000
0100
0000
0000
1000
0000
0000
0100
0000
,
0001
0000
0010
0100
,
1000
0100
1000
0000
0010
0000
0100
0000
,
0001
0100
0001
0000
1000
0000
0100
1000
,
0010
0000
0000
0100
0000
0000
0001
0000
0010
0000
0000
0100
0000
0000
1000
0000
,
0001
0100
2020
0000
,
0000
0000
0000
0000
,
0000
0000
0000
0000
,
0000
0000
0000
0000
,
0000
0000
3030
0000
2000
0000
0000
3000
,
0200
0000
0000
0300
0020
0000
0000
0030
,
0002
0000
0000
0003
0200
0000
2300
0000
,
3200
0302
0023
2030
,
3020
0032
1003
0000
,
0000
0000
0001
1000
0001
1000
0010
0100
,
0010
0000
0000
0000
,
0000
0000
0000
0000
0000
0000
0000
0000
0000
0000
0000
0000
0000
0000
0000
MMMM
;
